#TITLE:Ba Yonga Wamba;
#SUBTITLE:;
#ARTIST:Banaroo;
#TITLETRANSLIT:;
#SUBTITLETRANSLIT:;
#ARTISTTRANSLIT:;
#CREDIT:;
#BANNER:Ba Yonga Wamba-logo.jpg;
#BACKGROUND:Ba Yonga Wamba.jpg;
#LYRICSPATH:;
#CDTITLE:Lan.png;
#MUSIC:Ba Yonga Wamba.mp3;
#OFFSET:-0.040;
#SAMPLESTART:100.000;
#SAMPLELENGTH:12.000;
#SELECTABLE:YES;
#BPMS:0.000=115.000;
#STOPS:;
#BGCHANGES:;
// cache tags:
#FIRSTBEAT:8.000;
#LASTBEAT:276.750;
#SONGFILENAME:Songs/lan sky/Ba Yonga Wamba/Ba Yonga Wamba.sm;
#HASMUSIC:1;
#HASBANNER:1;
#MUSICLENGTH:148.026;
// end cache tags

//---------------dance-single - sky----------------
#NOTES:
     dance-single:
     sky:
     Hard:
     9:
     0.787,0.818,1.000,0.000,0.314,585.000,219.000,0.000,0.000,11.000:

0000
0000
0000
0000
,
0000
0000
0000
0000
,
1000
0000
0100
0000
0011
0000
0010
0001
0000
0100
0000
0100
1001
0000
0010
0000
,
0001
0000
0010
0000
0101
0000
1000
0100
0000
0011
0000
0010
1000
0000
0011
0000
,
1000
0000
0100
0000
1010
0000
0001
0010
0000
1000
0000
0100
1010
0000
0001
0000
,
0010
0000
0100
0000
1100
0000
0100
0010
0000
0000
0011
0000
0110
0000
1100
0000
,
1011
0100
1010
0100
0001
0100
1010
0100
,
0001
0100
0101
1000
0010
1100
0001
0110
,
1000
0001
1100
0010
1000
0100
0011
0100
,
0001
0010
1100
0010
0100
1100
0010
0101
,
0010
0100
0001
0010
0100
1000
0100
0010
,
1100
0011
0110
1100
,
0011
0101
1010
0110
,
1100
0101
1010
1001
,
1100
0010
0100
0010
0101
0000
1000
0000
1100
0010
0100
0010
0101
0000
0010
0000
,
1000
0110
0001
0110
1000
0110
0001
1100
,
0010
0101
0010
1100
0010
0101
1000
0110
,
0001
1100
0010
1001
0100
0101
0010
1010
,
0100
0011
1000
0101
0010
1001
0100
0011
,
1000
0101
1000
0110
0001
1010
0100
1001
,
0100
0000
0001
0010
0001
0010
0100
0000
1000
0000
0000
0000
0000
0000
0000
0000
,
1100
0011
1000
0110
0001
1100
1000
0011
,
0100
1010
0100
1001
0010
1100
0100
0101
,
0010
1100
0100
1010
0100
1001
0100
0011
,
0100
1010
0100
0011
0001
0110
0001
1010
,
0100
0011
0100
1010
0001
1100
0100
1001
,
0100
0011
0001
1010
0100
1001
0100
0101
,
0010
1100
0010
1001
0100
0011
0001
1010
,
0100
1010
0100
1100
0000
0000
0000
0000
,
1101
0010
1100
0100
1000
0100
0011
0100
,
0001
1000
0110
1000
0100
0011
0100
1010
,
0001
0010
1100
0010
1000
0100
1001
0100
,
0010
0001
1100
0010
1000
0110
1000
0101
,
1011
0100
1010
0100
1000
0100
0011
0100
,
0001
0010
1100
0010
1000
0110
0001
1100
,
0010
0001
1010
0100
1000
0100
1001
0010
,
0100
1000
0110
1000
0100
0011
1000
0101
,
1110
0000
0001
0000
0110
0000
1000
0100
0000
0001
0000
0010
1100
0000
0001
0000
,
1000
0000
0100
0000
1001
0000
0010
0100
0000
0001
0000
1100
0010
0000
0101
0000
,
1000
0000
0100
0000
0011
0000
1000
0100
0000
0001
0000
1000
0110
0000
0001
0000
,
1000
0000
0100
0000
0011
0000
1000
0100
0000
0001
0000
0011
0100
0000
1100
0000
,
1110
0000
0001
0000
0110
0000
1000
0100
0000
0001
0000
0010
1100
0000
0001
0000
,
1000
0000
0100
0000
1001
0000
0010
0100
0000
0001
0000
1100
0010
0000
0101
0000
,
1000
0000
0100
0000
0011
0000
1000
0100
0000
0001
0000
1000
0110
0000
0001
0000
,
1000
0000
0100
0000
0011
0000
1000
0100
0000
0000
0001
0000
0010
0000
0100
0000
,
1101
0000
0100
0100
0011
0000
1000
1000
0110
0000
0001
0001
0110
0000
1000
1000
,
0110
0000
0001
0001
0110
0000
1000
1000
0110
0000
0100
0100
1001
0000
0010
0010
,
1100
0000
0001
0001
1010
0000
0100
0100
1001
0000
1000
1000
0110
0000
0001
0001
,
1100
0000
0010
0010
0101
0000
1000
1000
0011
0000
0100
0100
1010
0000
0010
0010
,
1101
0000
0100
0100
0011
0000
1000
1000
0110
0000
0001
0001
1100
0000
0100
0100
,
0011
0000
0010
0010
1001
0000
0001
0001
1010
0000
1000
1000
0101
0000
0010
0010
,
1100
0000
0100
0100
0011
0000
0010
0010
0110
0000
1000
1000
1100
0000
0001
0001
,
0011
0000
0100
0100
0101
0000
0010
0010
0000
0000
0000
0000
0000
0000
0000
0000
,
1101
0000
0010
0010
1100
0000
0010
0010
0101
0000
1000
1000
0101
0000
0010
0010
,
1100
0000
0001
0001
0110
0000
1000
1000
0011
0000
0110
0000
0001
0000
1100
0000
,
0110
0000
0001
0001
1001
0000
0100
0100
0101
0000
0010
0010
1100
0000
0100
0100
,
0011
0000
1000
1000
0101
0000
0010
0010
1001
0000
0110
0000
1000
0000
0011
0000
,
1110
0000
0001
0001
1100
0000
0100
0100
1010
0000
0100
0100
0011
0000
0001
0001
,
1100
0000
0010
0010
0101
0000
1000
1000
0011
0000
1100
0000
0010
0000
0101
0000
,
1100
0000
0010
0010
0101
0000
1000
1000
0110
0000
0001
0001
1100
0000
0010
0010
,
0101
0000
1000
1000
1010
0000
0001
0001
0110
0000
1100
0000
0010
0000
0101
0000
,
1110
0001
1100
0010
1000
0100
0011
0100
,
1000
0100
0011
0100
0001
0110
1000
0110
,
1000
0100
0011
0100
0001
0010
1100
0010
,
1000
0100
1010
0001
0100
1010
0100
0101
,
1101
0010
1100
0010
1000
0100
0011
0100
,
0001
1000
0101
1000
0100
0011
0001
1100
,
0010
1000
0101
0010
0100
1000
0101
0010
,
1000
0100
1010
0100
0001
1100
0010
0101
,
0010
0000
0000
0100
0000
0000
0000
0000
0000
0000
0000
0000
0000
0000
0000
0000
;
